(Feb. 17, 2018) WARNING! hd4fun(dot)com is the only official domain we are using. Please check the url of the website you are exploring to avoid fakes or hacks.    (Jul. 12, 2018) Extmatrix's s37 file server is undergoing maintenance. It will be finished in couple days.    (Jun. 08, 2012) Having problems with our site? Check out the TIPS4U page.

The 39th Annual American Music Awards (2011) 720p HDTV x264-NGB

Posted on November 30, 2011

The 39th Annual American Music Awards 2011 (TV 2011)

Awards | Music

The 39th American Music Awards was held on November 20, 2011 (7:00/8:00 CST/EST), at the Nokia Theatre in Los Angeles (see 2011 in music). The awards recognized the most popular artists and albums from the year 2011. Nominees were announced on October 11, 2011. The awards ceremony was host-free. It was broadcast on ABC. Taylor Swift and Adele were the big winners of the night picking up three awards in total.

Starring: Chris Harrison, Vanessa Lachey, Ryan Devlin, Mary J. Blige, Cheryl Hines, Jennifer Hudson, Joe Jonas, Sean Kingston, John Legend, LMFAO, Jenny McCarthy, Hot Chelle Rae, Lionel Richie, Smokey Robinson, Mike Sorrentino, Taylor Swift
Director: Michael Dempsey

AMA Info

TechInfo:
The.39th.Annual.American.Music.Awards.2011.720p.HDTV.x264-NGB

General
Unique ID : 235543322456123078784185608703842437184 (0xB133FE6924DF3518859523D08DBFC840)
Complete name : ~\39th.Annual.American.Music.Awards.2011.720p.HDTV.x264-NGB.mkv
Format : Matroska
Format version : Version 2
File size : 4.42 GiB
Duration : 2h 8mn
Overall bit rate : 4 914 Kbps
Encoded date : UTC 2011-11-28 09:31:30
Writing application : mkvmerge v4.4.0 ('Die Wiederkehr') built on Oct 31 2010 21:52:48
Writing library : libebml v1.0.0 + libmatroska v1.0.0

Video
ID : 1
Format : AVC
Format/Info : Advanced Video Codec
Format profile : High@L4.1
Format settings, CABAC : Yes
Format settings, ReFrames : 7 frames
Codec ID : V_MPEG4/ISO/AVC
Duration : 2h 8mn
Bit rate : 4 432 Kbps
Width : 1 280 pixels
Height : 720 pixels
Display aspect ratio : 16:9
Frame rate : 29.970 fps
Color space : YUV
Chroma subsampling : 4:2:0
Bit depth : 8 bits
Scan type : Progressive
Bits/(Pixel*Frame) : 0.160
Stream size : 3.99 GiB (90%)
Writing library : x264 core 116 r2074 2641b9e
Encoding settings : cabac=1 / ref=7 / deblock=1:-3:-3 / analyse=0×3:0×133 / me=umh / subme=9 / psy=1 / psy_rd=1.00:0.00 / mixed_ref=1 / me_range=16 / chroma_me=1 / trellis=1 / 8x8dct=1 / cqm=0 / deadzone=21,11 / fast_pskip=0 / chroma_qp_offset=-2 / threads=12 / sliced_threads=0 / nr=0 / decimate=1 / interlaced=0 / bluray_compat=0 / constrained_intra=0 / bframes=3 / b_pyramid=2 / b_adapt=2 / b_bias=0 / direct=1 / weightb=1 / open_gop=0 / weightp=2 / keyint=250 / keyint_min=25 / scenecut=40 / intra_refresh=0 / rc_lookahead=40 / rc=crf / mbtree=1 / crf=19.0 / qcomp=0.60 / qpmin=10 / qpmax=51 / qpstep=4 / vbv_maxrate=5000 / vbv_bufsize=5000 / crf_max=0.0 / nal_hrd=none / ip_ratio=1.40 / aq=1:1.00

Audio
ID : 2
Format : AC-3
Format/Info : Audio Coding 3
Mode extension : CM (complete main)
Codec ID : A_AC3
Duration : 2h 8mn
Bit rate mode : Constant
Bit rate : 384 Kbps
Channel(s) : 6 channels
Channel positions : Front: L C R, Side: L R, LFE
Sampling rate : 48.0 KHz
Bit depth : 16 bits
Compression mode : Lossy
Delay relative to video : 34ms
Stream size : 354 MiB (8%)

Nomination List:
★Artist of the Year
Adele
Lady Gaga
Katy Perry
Lil Wayne
Taylor Swift

★Sprint New Artist of the Year
Hot Chelle Rae
The Band Perry
Miguel
Wiz Khalifa

★Favorite Pop/Rock Male Artist
Justin Bieber
Bruno Mars
Pitbull

★Favorite Pop/Rock Female Artist
Adele
Lady Gaga
Katy Perry

★Favorite Pop/Rock Band/Duo/Group
LMFAO
Maroon 5
OneRepublic

★Favorite Pop/Rock Album
21 – Adele
Loud – Rihanna
Born This Way – Lady Gaga

★Favorite Country Male Artist
Jason Aldean
Brad Paisley
Blake Shelton

★Favorite Country Female Artist
Sara Evans
Miranda Lambert
Taylor Swift

★Favorite Country Band/Duo/Group
Zac Brown Band
Lady Antebellum
The Band Perry

★Favorite Country Album
My Kinda Party – Jason Aldean
Speak Now – Taylor Swift
The Band Perry – The Band Perry

★Favorite Rap/Hip-Hop Artist
Lil Wayne
Nicki Minaj
Kanye West

★Favorite Rap/Hip-Hop Album
Tha Carter IV – Lil Wayne
Watch the Throne – Jay-Z & Kanye West
Pink Friday – Nicki Minaj

★Favorite Soul/R&B Male Artist
Chris Brown
Trey Songz
Usher

★Favorite Soul/R&B Female Artist
Rihanna
Beyoncé
Kelly Rowland

★Favorite Soul/R&B Album
F.A.M.E. – Chris Brown
Loud – Rihanna
4 – Beyoncé

★Favorite Alternative Artist
Foo Fighters
The Black Keys
Mumford & Sons

★Favorite Adult Contemporary Artist
Adele
Bruno Mars
Katy Perry

★Favorite Latin Artist
Pitbull
Enrique Iglesias
Jennifer Lopez

★Favorite Contemporary Inspirational Artist
Casting Crowns
Tobymac
Third Day

★Special Award
Katy Perry – Female artist with five #1 singles off the same album

Screenshot:


Download Links:
FileServe:
http://www.fileserve.com/file/8JhGa8U/39th.Annual.American.Music.Awards.2011.720p.HDTV.x264-NGB.part1.rar
http://www.fileserve.com/file/vp6Cc8B/39th.Annual.American.Music.Awards.2011.720p.HDTV.x264-NGB.part2.rar
http://www.fileserve.com/file/vXkGWDA/39th.Annual.American.Music.Awards.2011.720p.HDTV.x264-NGB.part3.rar
http://www.fileserve.com/file/RdEY6dE/39th.Annual.American.Music.Awards.2011.720p.HDTV.x264-NGB.part4.rar
http://www.fileserve.com/file/Jm2gjWj/39th.Annual.American.Music.Awards.2011.720p.HDTV.x264-NGB.part5.rar

FileSonic:
http://www.filesonic.com/file/4042844325/39th.Annual.American.Music.Awards.2011.720p.HDTV.x264-NGB.part1.rar
http://www.filesonic.com/file/4042844345/39th.Annual.American.Music.Awards.2011.720p.HDTV.x264-NGB.part2.rar
http://www.filesonic.com/file/4042851155/39th.Annual.American.Music.Awards.2011.720p.HDTV.x264-NGB.part3.rar
http://www.filesonic.com/file/4042844335/39th.Annual.American.Music.Awards.2011.720p.HDTV.x264-NGB.part4.rar
http://www.filesonic.com/file/4042851145/39th.Annual.American.Music.Awards.2011.720p.HDTV.x264-NGB.part5.rar
 

Tags: , , , , , , , , , , , , , , , ,

Do you have anything to say?

*

This site does not store any files on its server. We only index and link to content provided by other sites. © 2011-2018 HD4Fun Entries (RSS)