(May. 24, 2017) The site is having network issues. We are working on it.    (Jan. 1, 2017) Extmatrix.com is having temporary DNS problems, which might cause site inaccessible error in some countries.    (Oct. 01, 2014) Our email system has problem with Yahoo email. Most of the emails from Yahoo are unreachable to us. So, please try not to use Yahoo email address here!    (Nov. 24, 2012) REQUEST page is closed!    (Nov. 09, 2012) New EXCLUSIVE page is opened for premium members. More and more exclusive HD videos will be added!    (Nov. 09, 2012) ExtMatrix.com just released Direct Download Links function, which means you can add batch ExtMatrix download links in your favourite download manager at one time. Check the TIPS page to find more details.    (Sep. 19, 2012) ExtMatrix.com added new payment gateway. You will like it!    (Jun. 08, 2012) Having problems with our site? Check out the TIPS4U page.

The 38th Annual American Music Awards (2010) 720p HDTV x264-NGB

Posted on November 30, 2011

The 38th Annual American Music Awards 2010 (TV 2010)

Awards | Music

The 38th American Music Awards were held November 21, 2010 at the Nokia Theatre in Los Angeles, California. The awards recognized the most popular artists and albums from 2010. Nominees were announced on October 12, 2010. Justin Bieber was nominated for, and won, four awards, including Artist of the Year. Usher and Eminem both won two awards; the former was nominated for three and the latter, five.

Starring: Christina Aguilera, Jessica Alba, Backstreet Boys, Skye Barrett, Lance Bass, Natasha Bedingfield, Julie Benz, Justin Bieber, Bon Jovi, Russell Brand, Stuart Brazell, Michael Bublé, Cheryl Burke, Sarah Alice Burns, Christina Carducci, Michael Chiklis, Sean Combs, Liberty Cordova, Darren Criss, Sheryl Crow, Taio Cruz, Miley Cyrus, Diddy-Dirty Money, Nathan Fillion, Chantel Gonsalves, Keri Hilson, Galen Hooks, Julianne Hough, Enrique Iglesias, Samuel L. Jackson, Stana Katic, Ke$ha, Kid Rock, Heidi Klum, Ryan Kwanten, Lady Antebellum, Avril Lavigne, John Legend, Nia Lyte, Mike C. Manning, Michelle Marie, Jenny McCarthy, Jennette McCurdy, Christina Milian, Nicki Minaj, Mandy Moore, Rachel Ann Mullins, Muse, Mitchel Musso, Ne-Yo, New Kids on the Block, Kelly Osbourne, Brad Paisley, Katy Perry, Pink, Jada Pinkett Smith, Pitbull, Whitney Port, Mike Posner, Usher Raymond, Rihanna, Rico Rodriguez, Erin Ross, Gavin Rossdale, Carlos Santana, Ryan Seacrest, Seal, Karina Smirnoff, Jaden Smith, Willow Smith, Trey Songz, Mike Sorrentino, Eric Stonestreet, Taylor Swift, Train, Nikki Tuazon, Johnny Weir, Kady Zinke

AMA Info

TechInfo:
The.38th.Annual.American.Music.Awards.2010.720p.HDTV.x264-NGB

General
Unique ID : 202632252918331126481697643339377053142 (0x98718D676D112BC092569D6AF0208DD6)
Complete name : ~\38th.Annual.American.Music.Awards.2010.720p.HDTV.x264-NGB.mkv
Format : Matroska
Format version : Version 2
File size : 4.61 GiB
Duration : 2h 5mn
Overall bit rate : 5 259 Kbps
Encoded date : UTC 2011-11-27 08:48:20
Writing application : mkvmerge v4.4.0 ('Die Wiederkehr') built on Oct 31 2010 21:52:48
Writing library : libebml v1.0.0 + libmatroska v1.0.0

Video
ID : 1
Format : AVC
Format/Info : Advanced Video Codec
Format profile : High@L4.1
Format settings, CABAC : Yes
Format settings, ReFrames : 7 frames
Codec ID : V_MPEG4/ISO/AVC
Duration : 2h 5mn
Bit rate : 4 770 Kbps
Width : 1 280 pixels
Height : 720 pixels
Display aspect ratio : 16:9
Frame rate : 59.940 fps
Color space : YUV
Chroma subsampling : 4:2:0
Bit depth : 8 bits
Scan type : Progressive
Bits/(Pixel*Frame) : 0.086
Stream size : 4.18 GiB (91%)
Writing library : x264 core 116 r2074 2641b9e
Encoding settings : cabac=1 / ref=7 / deblock=1:-3:-3 / analyse=0×3:0×133 / me=umh / subme=9 / psy=1 / psy_rd=1.00:0.00 / mixed_ref=1 / me_range=16 / chroma_me=1 / trellis=1 / 8x8dct=1 / cqm=0 / deadzone=21,11 / fast_pskip=0 / chroma_qp_offset=-2 / threads=12 / sliced_threads=0 / nr=0 / decimate=1 / interlaced=0 / bluray_compat=0 / constrained_intra=0 / bframes=3 / b_pyramid=2 / b_adapt=2 / b_bias=0 / direct=1 / weightb=1 / open_gop=0 / weightp=2 / keyint=250 / keyint_min=25 / scenecut=40 / intra_refresh=0 / rc_lookahead=40 / rc=crf / mbtree=1 / crf=19.0 / qcomp=0.60 / qpmin=10 / qpmax=51 / qpstep=4 / vbv_maxrate=5000 / vbv_bufsize=5000 / crf_max=0.0 / nal_hrd=none / ip_ratio=1.40 / aq=1:1.00

Audio
ID : 2
Format : MPEG Audio
Format version : Version 1
Format profile : Layer 2
Codec ID : A_MPEG/L2
Codec ID/Hint : MP2
Duration : 2h 5mn
Bit rate mode : Constant
Bit rate : 384 Kbps
Channel(s) : 2 channels
Sampling rate : 48.0 KHz
Compression mode : Lossy
Stream size : 345 MiB (7%)

Nomination List:
★Artist of the Year
Justin Bieber
Eminem
Kesha
Lady Gaga
Katy Perry

★T-Mobile Breakthrough Artist
Justin Bieber
Lady Antebellum
Mike Posner
Travie McCoy

★Favorite Pop/Rock Male Artist
Justin Bieber
Eminem
Usher

★Favorite Pop/Rock Female Artist
Kesha
Lady Gaga
Katy Perry

★Favorite Pop/Rock Band/Duo/Group
The Black Eyed Peas
Lady Antebellum
Train

★Favorite Pop/Rock Album
My World 2.0 – Justin Bieber
Recovery – Eminem
Teenage Dream – Katy Perry

★Favorite Country Male Artist
Jason Aldean
Luke Bryan
Brad Paisley

★Favorite Country Female Artist
Miranda Lambert
Taylor Swift
Carrie Underwood

★Favorite Country Band/Duo/Group
Lady Antebellum
Rascal Flatts
Zac Brown Band

★Favorite Country Album
Need You Now – Lady Antebellum
Play On – Carrie Underwood
Wide Open – Jason Aldean

★Favorite Rap/Hip-Hop Male Artist
B.o.B
Drake
Eminem

★Favorite Rap/Hip-Hop Album
B.o.B. Presents: The Adventures of Bobby Ray – B.o.B
Recovery – Eminem
Thank Me Later – Drake

★Favorite Soul/R&B Male Artist
Chris Brown
Trey Songz
Usher

★Favorite Soul/R&B Female Artist
Alicia Keys
Rihanna
Sade

★Favorite Soul/R&B Album
The Element of Freedom – Alicia Keys
Raymond v. Raymond – Usher
Soldier of Love – Sade

★Favorite Soundtrack
Iron Man 2 – AC/DC
Glee: The Music, Volume 3 Showstoppers – Glee Cast
The Twilight Saga: Eclipse – Various artists

★Favorite Alternative Artist
Muse
Phoenix
Vampire Weekend

★Favorite Adult Contemporary Artist
Lady Antebellum
Michael Bublé
Train

★Favorite Latin Artist
Daddy Yankee
Enrique Iglesias
Shakira

★Favorite Contemporary Inspirational Artist
Casting Crowns
MercyMe
TobyMac

Screenshot:



Download Links:
FileServe:
http://www.fileserve.com/file/sXKjFrb/38th.Annual.American.Music.Awards.2010.720p.HDTV.x264-NGB.part1.rar
http://www.fileserve.com/file/bsHjWEf/38th.Annual.American.Music.Awards.2010.720p.HDTV.x264-NGB.part2.rar
http://www.fileserve.com/file/wxGXUGB/38th.Annual.American.Music.Awards.2010.720p.HDTV.x264-NGB.part3.rar
http://www.fileserve.com/file/etyp5KN/38th.Annual.American.Music.Awards.2010.720p.HDTV.x264-NGB.part4.rar
http://www.fileserve.com/file/DrzshEU/38th.Annual.American.Music.Awards.2010.720p.HDTV.x264-NGB.part5.rar

FileSonic:
http://www.filesonic.com/file/4042834795/38th.Annual.American.Music.Awards.2010.720p.HDTV.x264-NGB.part1.rar
http://www.filesonic.com/file/4042834805/38th.Annual.American.Music.Awards.2010.720p.HDTV.x264-NGB.part2.rar
http://www.filesonic.com/file/4042834815/38th.Annual.American.Music.Awards.2010.720p.HDTV.x264-NGB.part3.rar
http://www.filesonic.com/file/4042840815/38th.Annual.American.Music.Awards.2010.720p.HDTV.x264-NGB.part4.rar
http://www.filesonic.com/file/4042840805/38th.Annual.American.Music.Awards.2010.720p.HDTV.x264-NGB.part5.rar
 

Tags: , , , , , , , , , , , , , , , , , , , , , , , , , , , , , , , , , , , , , , , , , , , , , , , , , , , , , , , , , , , , , , , , , , , , , , , , , , , , ,

Comments (1)

  • Please Re-Upload This Show In ExtMatrix

Do you have anything to say?

*

This site does not store any files on its server. We only index and link to content provided by other sites. © 2011-2018 HD4Fun Entries (RSS)