(May. 24, 2017) The site is having network issues. We are working on it.    (Jan. 1, 2017) Extmatrix.com is having temporary DNS problems, which might cause site inaccessible error in some countries.    (Oct. 01, 2014) Our email system has problem with Yahoo email. Most of the emails from Yahoo are unreachable to us. So, please try not to use Yahoo email address here!    (Nov. 24, 2012) REQUEST page is closed!    (Nov. 09, 2012) New EXCLUSIVE page is opened for premium members. More and more exclusive HD videos will be added!    (Nov. 09, 2012) ExtMatrix.com just released Direct Download Links function, which means you can add batch ExtMatrix download links in your favourite download manager at one time. Check the TIPS page to find more details.    (Sep. 19, 2012) ExtMatrix.com added new payment gateway. You will like it!    (Jun. 08, 2012) Having problems with our site? Check out the TIPS4U page.

Space Buddies (2009) BluRay 720p x264 DTS-WiKi

Posted on July 20, 2011

Space Buddies (2009)

Adventure | Family | Sci-Fi

Adorable golden retriever puppies Rosebud, Buddha, Budderball, B-Dawg, and Mudbud return in an epic adventure that takes them farther than they ever dreamed. In a delightful new escapade, the inquisitive pooches travel to the moon in search of a dream, only to realize that what they want is back on earth. Moving at warp speed, dodging asteroids and more, the Buddies and their two new friends, Spudnick, a sweet bull terrier and Gravity, a resourceful ferret, must summon their courage and ingenuity to launch plans for a moon landing and a rocketing trip back home. Will they have the right stuff?

Overflowing with intergalactic action and heart, 'Space Buddies' is an inspiring tale of teamwork, and loyalty that celebrates the journey of life and the friendships made along the way. It's Buddy-loving fun the whole family will enjoy again and again.

Starring: Diedrich Bader, C. Ernst Harth, Field Cate, Josh Flitter, Amy Sedaris
Director: Robert Vince

IMDb Info

TechInfo:
General
Unique ID :     234239823773320309089853589548868267086 (0xB038F2F6BAE858FF80067372852B6C4E)
Complete name :     Space.Buddies.2009.BluRay.720p.x264.DTS-WiKi.mkv
Format :     Matroska
File size :     4.37 GiB
Duration :     1h 24mn
Overall bit rate :     7 439 Kbps
Encoded date :     UTC 2009-03-22 03:15:39
Writing application :     mkvmerge v2.4.0 ('Fumbling Towards Ecstasy') built on Oct 11 2008 20:13:15
Writing library :     libebml v0.7.7 + libmatroska v0.8.1

Video
ID :     1
Format :     AVC
Format/Info :     Advanced Video Codec
Format profile :     High@L4.1
Format settings, CABAC :     Yes
Format settings, ReFrames :     8 frames
Codec ID :     V_MPEG4/ISO/AVC
Duration :     1h 24mn
Bit rate :     5 938 Kbps
Width :     1 280 pixels
Height :     720 pixels
Display aspect ratio :     16:9
Frame rate :     23.976 fps
Color space :     YUV
Chroma subsampling :     4:2:0
Bit depth :     8 bits
Scan type :     Progressive
Bits/(Pixel*Frame) :     0.269
Stream size :     3.39 GiB (78%)
Writing library :     x264 core 67 r1128M 682b54d
Encoding settings :     cabac=1 / ref=8 / deblock=1:-3:-3 / analyse=0×3:0×133 / me=umh / subme=7 / psy_rd=1.2:0.0 / mixed_ref=1 / me_range=32 / chroma_me=1 / trellis=1 / 8x8dct=1 / cqm=0 / deadzone=21,11 / chroma_qp_offset=-2 / threads=6 / nr=0 / decimate=1 / mbaff=0 / bframes=16 / b_pyramid=0 / b_adapt=1 / b_bias=0 / direct=3 / wpredb=1 / keyint=250 / keyint_min=25 / scenecut=40 / rc=2pass / bitrate=5938 / ratetol=1.0 / qcomp=0.60 / qpmin=10 / qpmax=51 / qpstep=4 / cplxblur=20.0 / qblur=0.5 / ip_ratio=1.40 / pb_ratio=1.30 / aq=1:1.20
Language :     English

Audio
ID :     2
Format :     DTS
Format/Info :     Digital Theater Systems
Codec ID :     A_DTS
Duration :     1h 24mn
Bit rate mode :     Constant
Bit rate :     1 510 Kbps
Channel(s) :     6 channels
Channel positions :     Front: L C R, Side: L R, LFE
Sampling rate :     48.0 KHz
Bit depth :     24 bits
Compression mode :     Lossy
Stream size :     907 MiB (20%)

Screenshot:



Download Links:
FileServe:
http://www.fileserve.com/file/8qWH2h4/SB2009W.part01.rar
http://www.fileserve.com/file/ACjwkQZ/SB2009W.part02.rar
http://www.fileserve.com/file/aP8FuYY/SB2009W.part03.rar
http://www.fileserve.com/file/cmHbw8T/SB2009W.part04.rar
http://www.fileserve.com/file/EEYmTZT/SB2009W.part05.rar
http://www.fileserve.com/file/q9x7gpd/SB2009W.part06.rar
http://www.fileserve.com/file/XJRuyuT/SB2009W.part07.rar
http://www.fileserve.com/file/MMT2eZp/SB2009W.part08.rar
http://www.fileserve.com/file/5babhwX/SB2009W.part09.rar
http://www.fileserve.com/file/EYDtNPu/SB2009W.part10.rar
http://www.fileserve.com/file/299KqAN/SB2009W.part11.rar
http://www.fileserve.com/file/sXzdG8p/SB2009W.part12.rar
http://www.fileserve.com/file/bNVZ2wg/SB2009W.part13.rar
http://www.fileserve.com/file/pmnGeYD/SB2009W.part14.rar
http://www.fileserve.com/file/KgPZTnm/SB2009W.part15.rar
http://www.fileserve.com/file/SBPsb3E/SB2009W.part16.rar
http://www.fileserve.com/file/hHgNcXN/SB2009W.part17.rar
http://www.fileserve.com/file/rKwqK2R/SB2009W.part18.rar

FileSonic:
http://www.filesonic.com/file/1483154434/SB2009W.part01.rar
http://www.filesonic.com/file/1483290151/SB2009W.part02.rar
http://www.filesonic.com/file/1483258751/SB2009W.part03.rar
http://www.filesonic.com/file/1483284081/SB2009W.part04.rar
http://www.filesonic.com/file/1483258611/SB2009W.part05.rar
http://www.filesonic.com/file/1483286971/SB2009W.part06.rar
http://www.filesonic.com/file/1483284061/SB2009W.part07.rar
http://www.filesonic.com/file/1483284021/SB2009W.part08.rar
http://www.filesonic.com/file/1483174634/SB2009W.part09.rar
http://www.filesonic.com/file/1483155394/SB2009W.part10.rar
http://www.filesonic.com/file/1483155424/SB2009W.part11.rar
http://www.filesonic.com/file/1483173904/SB2009W.part12.rar
http://www.filesonic.com/file/1483181914/SB2009W.part13.rar
http://www.filesonic.com/file/1483160874/SB2009W.part14.rar
http://www.filesonic.com/file/1483155614/SB2009W.part15.rar
http://www.filesonic.com/file/1483154354/SB2009W.part16.rar
http://www.filesonic.com/file/1483156564/SB2009W.part17.rar
http://www.filesonic.com/file/1483173054/SB2009W.part18.rar

UploadStation:
http://www.uploadstation.com/file/7nH7v3h/SB2009W.part01.rar
http://www.uploadstation.com/file/mW2aH8F/SB2009W.part02.rar
http://www.uploadstation.com/file/muGy3da/SB2009W.part03.rar
http://www.uploadstation.com/file/KP93dtb/SB2009W.part04.rar
http://www.uploadstation.com/file/2ENGrrR/SB2009W.part05.rar
http://www.uploadstation.com/file/XJxmRKT/SB2009W.part06.rar
http://www.uploadstation.com/file/x7exEvM/SB2009W.part07.rar
http://www.uploadstation.com/file/CkS2nCs/SB2009W.part08.rar
http://www.uploadstation.com/file/kJ4MDhG/SB2009W.part09.rar
http://www.uploadstation.com/file/tXz7RKq/SB2009W.part10.rar
http://www.uploadstation.com/file/SD88WeS/SB2009W.part11.rar
http://www.uploadstation.com/file/DQsJJFN/SB2009W.part12.rar
http://www.uploadstation.com/file/TXnJAXa/SB2009W.part13.rar
http://www.uploadstation.com/file/pJYwE82/SB2009W.part14.rar
http://www.uploadstation.com/file/sYhDuuZ/SB2009W.part15.rar
http://www.uploadstation.com/file/Ne76jHW/SB2009W.part16.rar
http://www.uploadstation.com/file/w3WuHcA/SB2009W.part17.rar
http://www.uploadstation.com/file/SXPCDMb/SB2009W.part18.rar

Wupload:
http://www.wupload.com/file/62544124/SB2009W.part01.rar
http://www.wupload.com/file/62544388/SB2009W.part02.rar
http://www.wupload.com/file/62536170/SB2009W.part03.rar
http://www.wupload.com/file/62544662/SB2009W.part04.rar
http://www.wupload.com/file/62544658/SB2009W.part05.rar
http://www.wupload.com/file/62544646/SB2009W.part06.rar
http://www.wupload.com/file/62536125/SB2009W.part07.rar
http://www.wupload.com/file/62536187/SB2009W.part08.rar
http://www.wupload.com/file/62535746/SB2009W.part09.rar
http://www.wupload.com/file/62544673/SB2009W.part10.rar
http://www.wupload.com/file/62544655/SB2009W.part11.rar
http://www.wupload.com/file/62544372/SB2009W.part12.rar
http://www.wupload.com/file/62544375/SB2009W.part13.rar
http://www.wupload.com/file/62544366/SB2009W.part14.rar
http://www.wupload.com/file/62544399/SB2009W.part15.rar
http://www.wupload.com/file/62536162/SB2009W.part16.rar
http://www.wupload.com/file/62535766/SB2009W.part17.rar
http://www.wupload.com/file/62543516/SB2009W.part18.rar

Password:
SB2009W@HD4Fun
 

Tags: , , , , ,

Comments (1)

  • Thanks

Do you have anything to say?

*

This site does not store any files on its server. We only index and link to content provided by other sites. © 2011-2017 HD4Fun Entries (RSS)