(Feb. 17, 2018) WARNING! hd4fun(dot)com is the only official domain we are using. Please check the url of the website you are exploring to avoid fakes or hacks.    (Jun. 08, 2012) Having problems with our site? Check out the TIPS4U page.

Court Lady (2007) HDTV 720p x264 AC3-2975581

Posted on November 4, 2011

Court Lady / Shadows in the Palace / Goongnyeo (2007)

Drama | Mystery | Thriller

During the Chosun period, a court lady is found dead, hanging by the rafters of the palace. After examining the dead body, place physician Chun-ryung discovers that the dead maid was probably murdered and carries out investigation even though her higher-ups pressure her to close the case as suicide.

Starring: Jin-hie Park, Se-ah Yun, Yeong-hie Seo, Jeong-eun Lim, Hye-jin Jeon, Seong-ryeong Kim, Nam-jin Kim
Director: Mee-jeung Kim

IMDb Info

TechInfo:
Court.Lady.2007.HDTV.720p.x264.AC3-2975581

File size : 4.37 GiB
Duration : 1h 50mn
Overall bit rate : 5 654 Kbps
Encoded date : UTC 2011-11-01 10:36:09
Writing application : mkvmerge v4.8.0 ('I Got The…') ▒α╥δ╙┌ May 24 2011 03:12:58
Writing library : libebml v1.2.0 + libmatroska v1.1.0

Video #1
ID : 1
Format : AVC
Format/Info : Advanced Video Codec
Format profile : High@L3.1
Format settings, CABAC : Yes
Format settings, ReFrames : 5 frames
Muxing mode : Header stripping
Codec ID : V_MPEG4/ISO/AVC
Duration : 1h 50mn
Bit rate : 5 315 Kbps
Width : 1 280 pixels
Height : 688 pixels
Display aspect ratio : 1.860
Frame rate : 29.970 fps
Color space : YUV
Chroma subsampling : 4:2:0
Bit depth : 8 bits
Scan type : Progressive
Bits/(Pixel*Frame) : 0.201
Stream size : 3.99 GiB (91%)
Writing library : x264 core 116 r2074 2641b9e
Language : Korean

Audio #2
ID : 2
Format : AC-3
Format/Info : Audio Coding 3
Mode extension : CM (complete main)
Muxing mode : Header stripping
Codec ID : A_AC3
Duration : 1h 50mn
Bit rate mode : Constant
Bit rate : 384 Kbps
Channel(s) : 2 channels
Channel positions : Front: L R
Sampling rate : 48.0 KHz
Bit depth : 16 bits
Compression mode : Lossy
Delay relative to video : 858ms
Stream size : 304 MiB (7%)
Language : Korean

Text #3
ID : 3
Format : UTF-8
Codec ID : S_TEXT/UTF8
Codec ID/Info : UTF-8 Plain Text
Language : Chinese

Screenshot:

Download Links:
FileServe:
http://www.fileserve.com/file/JZ4c64d/20111103CL2007H.part01.rar
http://www.fileserve.com/file/wtT2pbz/20111103CL2007H.part02.rar
http://www.fileserve.com/file/vX4HDU8/20111103CL2007H.part03.rar
http://www.fileserve.com/file/VhtqXcp/20111103CL2007H.part04.rar
http://www.fileserve.com/file/5naNbDa/20111103CL2007H.part05.rar
http://www.fileserve.com/file/W75kVAN/20111103CL2007H.part06.rar
http://www.fileserve.com/file/trNUC7R/20111103CL2007H.part07.rar
http://www.fileserve.com/file/Y3vx83e/20111103CL2007H.part08.rar
http://www.fileserve.com/file/UHMtdFK/20111103CL2007H.part09.rar
http://www.fileserve.com/file/PAwRMRs/20111103CL2007H.part10.rar
http://www.fileserve.com/file/BgqXTDe/20111103CL2007H.part11.rar
http://www.fileserve.com/file/tTpj7Tm/20111103CL2007H.part12.rar

FileSonic:
http://www.filesonic.com/file/2957108125/20111103CL2007H.part01.rar
http://www.filesonic.com/file/2957101755/20111103CL2007H.part02.rar
http://www.filesonic.com/file/2957107765/20111103CL2007H.part03.rar
http://www.filesonic.com/file/2957108645/20111103CL2007H.part04.rar
http://www.filesonic.com/file/2957108065/20111103CL2007H.part05.rar
http://www.filesonic.com/file/2957108245/20111103CL2007H.part06.rar
http://www.filesonic.com/file/2957108475/20111103CL2007H.part07.rar
http://www.filesonic.com/file/2957108375/20111103CL2007H.part08.rar
http://www.filesonic.com/file/2957102075/20111103CL2007H.part09.rar
http://www.filesonic.com/file/2957108445/20111103CL2007H.part10.rar
http://www.filesonic.com/file/2957107615/20111103CL2007H.part11.rar
http://www.filesonic.com/file/2957101595/20111103CL2007H.part12.rar

UploadStation:
http://www.uploadstation.com/file/NCm97ns/20111103CL2007H.part01.rar
http://www.uploadstation.com/file/8vn5uxx/20111103CL2007H.part02.rar
http://www.uploadstation.com/file/ddWaXWB/20111103CL2007H.part03.rar
http://www.uploadstation.com/file/wFpVC2t/20111103CL2007H.part04.rar
http://www.uploadstation.com/file/XgZjX2x/20111103CL2007H.part05.rar
http://www.uploadstation.com/file/bJbvxma/20111103CL2007H.part06.rar
http://www.uploadstation.com/file/3QRfe8f/20111103CL2007H.part07.rar
http://www.uploadstation.com/file/HnpwKvZ/20111103CL2007H.part08.rar
http://www.uploadstation.com/file/h2zmky6/20111103CL2007H.part09.rar
http://www.uploadstation.com/file/MGVDTHZ/20111103CL2007H.part10.rar
http://www.uploadstation.com/file/AM5HEvT/20111103CL2007H.part11.rar
http://www.uploadstation.com/file/NZkrJXs/20111103CL2007H.part12.rar

Wupload:
http://www.wupload.com/file/1881290822/20111103CL2007H.part01.rar
http://www.wupload.com/file/1880673691/20111103CL2007H.part02.rar
http://www.wupload.com/file/1881290827/20111103CL2007H.part03.rar
http://www.wupload.com/file/1881293317/20111103CL2007H.part04.rar
http://www.wupload.com/file/1881293322/20111103CL2007H.part05.rar
http://www.wupload.com/file/1881293327/20111103CL2007H.part06.rar
http://www.wupload.com/file/1880677086/20111103CL2007H.part07.rar
http://www.wupload.com/file/1880683606/20111103CL2007H.part08.rar
http://www.wupload.com/file/1881293332/20111103CL2007H.part09.rar
http://www.wupload.com/file/1881293337/20111103CL2007H.part10.rar
http://www.wupload.com/file/1881293342/20111103CL2007H.part11.rar
http://www.wupload.com/file/1880685701/20111103CL2007H.part12.rar
 

Tags: , , , , , , ,

Do you have anything to say?

*

This site does not store any files on its server. We only index and link to content provided by other sites. © 2011-2018 HD4Fun Entries (RSS)